#TITLE:NIGHT IN MOTION;
#SUBTITLE:(RC Trance Remix);
#ARTIST:Cubic 22;
#TITLETRANSLIT:;
#SUBTITLETRANSLIT:;
#ARTISTTRANSLIT:;
#CREDIT:;
#BANNER:NightInMotion-banner.png;
#BACKGROUND:NightInMotion-bg.png;
#LYRICSPATH:;
#CDTITLE:;
#MUSIC:Night In Motion.mp3;
#MUSICLENGTH:94.641;
#OFFSET:-0.100;
#SAMPLESTART:12.605;
#SAMPLELENGTH:12.000;
#SELECTABLE:YES;
#BPMS:0.000=142.120;
#STOPS:;
#BGCHANGES:;
#FIRSTBEAT:15.500;

#LASTBEAT:224.000;

#SONGFILENAME:Songs/ERICth The 3rd/Night In Motion/Night In Motion.sm;

#HASMUSIC:1;

#HASBANNER:1;


//---------------dance-single - MANIAC----------------
#NOTES:
     dance-single:
     MANIAC:
     hard:
     9:
     0.705,0.976,0.803,0.359,0.613,357.000,76.000,34.000,0.000,0.000:

0000
0000
0000
0000
,
0000
0000
0000
0000
,
0000
0000
0000
0000
,
0000
0000
0000
0000
0000
0000
0000
1000
,
1000
0000
0000
1000
0000
0000
0000
0010
,
0010
0000
0000
0010
0000
0000
0000
0001
,
0001
0000
0000
0001
0000
0000
0000
0100
,
0100
0000
0110
0000
1000
0001
1001
0000
,
1000
0000
0000
0010
0000
0000
1000
0000
1000
0100
1000
0100
1000
0000
1000
0000
,
0001
0000
0000
0010
0000
0000
0001
0000
1000
0001
1000
0001
1000
0000
0001
0000
,
1000
0000
0000
0100
0000
0000
0010
0000
0100
0010
0100
0010
0100
0000
0001
0000
,
0100
0000
0000
1000
0000
0000
0010
0000
0100
0001
0100
0001
0100
0000
1000
0000
,
1000
0000
0000
0010
0000
0000
1000
0000
1000
0100
1000
0100
1000
0000
1000
0000
,
0001
0000
0000
0010
0000
0000
0001
0000
1000
0001
1000
0001
1000
0000
0001
0000
,
1000
0000
0000
0100
0000
0000
0010
0000
0100
0010
0100
0010
0100
0000
0001
0000
,
0100
0000
0000
1000
0000
0000
0010
0000
0100
0001
0100
0001
0100
0000
1000
0000
,
1001
0000
1000
0000
0100
0010
0000
0100
0010
0000
0100
0010
0000
0100
0010
0000
,
0110
0000
1000
0000
0100
1000
0000
0100
1000
0000
0100
1000
0000
0100
1000
0000
,
1100
0000
0100
0000
0010
0001
0000
0010
0001
0000
0010
0001
0000
0010
0001
0000
,
0011
0000
0001
0000
1000
0001
0000
1000
0001
0000
1000
0001
0000
1000
0001
0000
,
1001
0000
1000
0000
0100
0010
0000
0100
0010
0000
0100
0010
0000
0100
0010
0000
,
0110
0000
1000
0000
0100
1000
0000
0100
1000
0000
0100
1000
0000
0100
1000
0000
,
1100
0000
0100
0000
0010
0001
0000
0010
0001
0000
0010
0001
0000
0010
0001
0000
,
0011
0000
0001
0000
1000
0001
0000
1000
0001
0000
1000
0001
0000
1000
0001
0000
,
1001
0000
2200
0000
3300
1100
0000
0000
,
1001
0000
0022
0000
0033
1001
0000
0000
,
0110
0000
2020
0000
3030
1010
0000
0000
,
1001
0000
0202
0000
0303
0101
0000
0000
,
1001
0000
2200
0000
3300
1100
0000
0000
,
1001
0000
0022
0000
0033
1001
0000
0000
,
0110
0000
2020
0000
3030
1010
0000
0000
,
1001
0000
0202
0000
0303
0101
0000
0000
,
1001
0000
2200
0000
3300
1100
0000
0000
,
1001
0000
0022
0000
0033
1001
0000
0000
,
0110
0000
2020
0000
3030
1010
0000
0000
,
1001
0000
0202
0000
0303
0101
0000
0000
,
1001
0000
2200
0000
3300
1100
0000
0000
,
1001
0000
0022
0000
0033
1001
0000
0000
,
0110
0000
2020
0000
3030
1010
0000
0000
,
1001
0000
0202
0000
0303
0101
0000
0000
,
0110
0001
0000
1000
0001
0000
1000
0001
1000
0001
1000
0001
1000
0000
0000
0000
,
0100
0010
0000
0100
0010
0000
0100
0010
0100
0010
0100
0010
0100
0000
0000
0000
,
1000
0100
0000
0001
0100
0000
1000
0100
0001
0100
1000
0100
0001
0000
0000
0000
,
1000
0010
0000
0100
0001
0000
1000
0010
1000
0100
1000
0010
1000
0000
0000
0000
,
1000
0100
0000
0100
0010
0000
0010
0001
0010
0001
0010
0001
1000
0000
0000
0000
,
0001
0100
0000
0100
0001
0000
0100
0010
0100
0001
0100
0010
0100
0000
0000
0000
,
1000
0001
0000
0001
1000
0000
1000
0010
1000
0010
1000
0001
1000
0000
0000
0000
,
0100
0010
0000
0010
0100
0000
0100
0010
0100
0010
0100
0010
0100
0000
0000
0000
,
1100
0000
0000
1100
0000
0000
1100
0000
1100
0000
0000
0000
0000
0000
0000
0000
,
0101
0000
0000
0101
0000
0000
0101
0000
0101
0000
0000
0000
0000
0000
0000
0000
,
1010
0000
0000
1010
0000
0000
1010
0000
1010
0000
0000
0000
0000
0000
0000
0000
,
0011
0000
0000
0011
0000
0000
0011
0000
0011
0000
0000
0000
0000
0000
0000
0000
,
1000
0010
1000
0010
1000
0010
1000
0010
1000
0010
1000
0010
1000
0010
1000
0010
,
1000
0001
1000
0001
1000
0001
1000
0001
1000
0001
1000
0001
1000
0001
1000
0001
,
1000
0000
1000
0000
,
1000
0000
0000
0000
0001
1000
2002
0000
,
3003
0000
0000
0000;

//---------------dance-single - ANOTHER----------------
#NOTES:
     dance-single:
     ANOTHER:
     medium:
     5:
     0.383,0.530,0.190,0.158,0.000,221.000,18.000,15.000,0.000,0.000:

0000
0000
0000
0000
,
0000
0000
0000
0000
,
0000
0000
0000
0000
,
0000
0000
0000
0000
0000
0000
0000
0010
,
1000
0000
0000
0001
0000
0000
0000
0010
,
1000
0000
0000
0001
0000
0000
0000
0010
,
0001
0000
0000
1000
0000
0000
0000
0010
,
0001
0000
0000
1000
0000
0000
0000
0000
,
1001
0100
0010
0100
,
0010
0001
1000
0100
,
0010
0001
1000
0100
,
1000
0010
0001
0010
,
1000
0100
1000
0010
,
1000
0001
0010
0001
,
1001
0100
0010
1001
,
1001
0100
0010
0100
,
1000
0001
1000
0001
,
1000
0100
1000
0010
,
1000
0001
0010
0100
,
1000
0010
0100
0001
,
1000
0010
0100
0100
,
0010
1000
0001
0010
,
1000
0001
0010
0100
,
1001
0000
1001
0000
1000
0100
0010
0000
,
1100
0000
0000
0000
0000
0002
0000
0000
,
1003
0000
1000
0000
0000
0002
0000
0000
,
0013
0000
0100
0000
0000
2000
0000
0000
,
3010
0000
0100
0000
0000
2000
0000
3000
,
0010
0000
0100
0000
0000
0002
0000
0000
,
0013
0000
0010
0000
0000
0002
0000
0003
,
1000
0000
0010
0000
0000
0200
0000
0000
,
1300
0000
0010
0000
0000
0002
0000
0003
,
0010
0000
0100
0000
0000
2000
0000
0000
,
3010
0000
0100
0000
0000
0002
0000
0000
,
0103
0000
0020
0000
0000
1030
0000
0000
,
0001
0000
0010
0000
0000
0200
0000
0000
,
1300
0000
0010
0000
0000
0002
0000
0003
,
0100
0000
0010
0000
0000
0020
0000
0000
,
1030
0000
0100
0000
0000
2000
0000
3000
,
0001
0001
0000
0000
,
1001
0100
1000
0010
,
1001
0100
0010
0100
,
1001
0100
0010
0100
,
1100
0000
0100
0000
0010
0000
0010
0001
,
0011
0001
0100
1000
,
0010
1000
0001
1000
,
0100
1000
0010
1000
,
0001
1000
0001
1000
0001
1000
0001
1000
,
0001
1000
0100
1000
0010
1000
0100
1000
,
0010
1000
0001
1000
0010
1000
0001
1000
,
0010
1000
0100
0001
0100
1000
0010
0001
,
0010
1000
0010
0001
0010
1000
0001
1000
,
0001
1000
0001
1000
0001
1000
1001
0001
,
0001
1000
0001
1000
0001
1000
0001
1000
,
0100
1000
0010
1000
0100
1000
0001
1000
,
1001
0000
1001
0000
1001
1001
1001
0000;

//---------------dance-single - BASIC----------------
#NOTES:
     dance-single:
     BASIC:
     easy:
     2:
     0.240,0.501,0.719,0.000,0.000,91.000,68.000,0.000,0.000,0.000:

0000
0000
0000
0000
,
0000
0000
0000
0000
,
0000
0000
0000
0000
,
0000
0000
0000
0000
,
0000
0000
0000
0000
,
0000
0000
0000
0000
,
0000
0000
0000
0000
,
0000
0000
0000
0000
,
0011
0000
0000
0000
,
1100
0000
0000
0000
,
0110
0000
0000
0000
,
1001
0000
0000
0000
,
0011
0000
0000
0000
,
1100
0000
0000
0000
,
0110
0000
0000
0000
,
1010
0000
0000
0000
,
0101
0000
1100
0000
,
0101
0000
1100
0000
,
0101
0000
1100
0000
,
0101
0000
1100
0000
,
1010
0000
0011
0000
,
1010
0000
0011
0000
,
1010
0000
0011
0000
,
1000
0001
1001
1001
,
1001
0100
0000
0000
,
1001
0100
0000
0000
,
1001
0100
0000
0000
,
1001
0100
0000
0000
,
1001
0010
0000
0000
,
1001
0010
0000
0000
,
1001
0010
0000
0000
,
1001
0010
0000
0000
,
0110
0010
0000
0000
,
0110
0100
0000
0000
,
0110
0010
0000
0000
,
0110
0100
0000
0000
,
1010
0010
0000
0000
,
0011
0010
0000
0000
,
1100
0100
0000
0000
,
0101
0100
0000
0000
,
0110
0000
0000
0000
,
0110
0000
0000
0000
,
0110
0000
0000
0000
,
0110
0000
0000
0000
,
0110
1001
0000
0000
,
0110
1001
0000
0000
,
1010
0101
0000
0000
,
0011
1100
0000
0000
,
1100
0101
0000
0000
,
1010
0011
0000
0000
,
0011
1010
1100
0101
,
0011
1010
1100
0101
,
0100
0000
0010
0000
,
0100
0000
0010
0000
,
0100
0110
0000
0110
,
0000
0110
0000
0110;
